Downloadinhd
Ant-Man and the Wasp (2018) Blu-ray 1080p REMUX AVC DTS-HD MA 7.1-FGT
0:00/ 45:00
Turn off light Favorite Comments (0) Report
Downloadinhd
0
0 votes, average: 0.00 out of 50 votes, average: 0.00 out of 50 votes, average: 0.00 out of 50 votes, average: 0.00 out of 50 votes, average: 0.00 out of 5
Loading...
Ant-Man and the Wasp (2018) Blu-ray 1080p REMUX AVC DTS-HD MA 7.1-FGT

Ant-Man and the Wasp (2018) Blu-ray 1080p REMUX AVC DTS-HD MA 7.1-FGT

Container : MKV
Size      : 33.51 GB (single link)


Video
ID : 1
Format : AVC
Format/Info : Advanced Video Codec
Format profile : [email protected]
Format settings : CABAC / 4 Ref Frames
Format settings, CABAC : Yes
Format settings, ReFrames : 4 frames
Format settings, GOP : M=3, N=12
Codec ID : V_MPEG4/ISO/AVC
Duration : 1 h 58 min
Bit rate mode : Variable
Bit rate : 31.7 Mb/s
Maximum bit rate : 34.5 Mb/s
Width : 1 920 pixels
Height : 1 080 pixels
Display aspect ratio : 16:9
Frame rate mode : Constant
Frame rate : 23.976 (24000/1001) FPS
Color space : YUV
Chroma subsampling : 4:2:0
Bit depth : 8 bits
Scan type : Progressive
Bits/(Pixel*Frame) : 0.638
Stream size : 26.2 GiB (78%)
Title : Ant.Man.and.the.Wasp.2018.1080p.BluRay.REMUX.AVC.DTS-HD.MA.7.1-FGT
Language : English
Default : No
Forced : No

Audio #1
ID : 2
Format : DTS
Format/Info : Digital Theater Systems
Format profile : MA / Core
Codec ID : A_DTS
Duration : 1 h 58 min
Bit rate mode : Variable / Constant
Bit rate : 4 788 kb/s / 1 509 kb/s
Channel(s) : 8 channels / 6 channels
Channel positions : Front: L C R, Side: L R, Back: L R, LFE / Front: L C R, Side: L R, LFE
Sampling rate : 48.0 kHz
Frame rate : 93.750 FPS (512 SPF)
Bit depth : 24 bits
Compression mode : Lossless / Lossy
Stream size : 3.95 GiB (12%)
Title : Ant.Man.and.the.Wasp.2018.1080p.BluRay.REMUX.AVC.DTS-HD.MA.7.1-FGT
Language : English
Default : Yes
Forced : No

Audio #2
ID : 3
Format : DTS
Format/Info : Digital Theater Systems
Codec ID : A_DTS
Duration : 1 h 58 min
Bit rate mode : Constant
Bit rate : 1 509 kb/s
Channel(s) : 6 channels
Channel positions : Front: L C R, Side: L R, LFE
Sampling rate : 48.0 kHz
Frame rate : 93.750 FPS (512 SPF)
Bit depth : 24 bits
Compression mode : Lossy
Stream size : 1.24 GiB (4%)
Title : Ant.Man.and.the.Wasp.2018.1080p.BluRay.REMUX.AVC.DTS-HD.MA.7.1-FGT
Language : English
Default : No
Forced : No

Audio #3
ID : 4
Format : AC-3
Format/Info : Audio Coding 3
Codec ID : A_AC3
Duration : 1 h 58 min
Bit rate mode : Constant
Bit rate : 320 kb/s
Channel(s) : 2 channels
Channel positions : Front: L R
Sampling rate : 48.0 kHz
Frame rate : 31.250 FPS (1536 SPF)
Bit depth : 16 bits
Compression mode : Lossy
Stream size : 270 MiB (1%)
Title : Ant.Man.and.the.Wasp.2018.1080p.BluRay.REMUX.AVC.DTS-HD.MA.7.1-FGT
Language : English
Service kind : Complete Main
Default : No
Forced : No

Audio #4
ID : 5
Format : AC-3
Format/Info : Audio Coding 3
Codec ID : A_AC3
Duration : 1 h 58 min
Bit rate mode : Constant
Bit rate : 640 kb/s
Channel(s) : 6 channels
Channel positions : Front: L C R, Side: L R, LFE
Sampling rate : 48.0 kHz
Frame rate : 31.250 FPS (1536 SPF)
Bit depth : 16 bits
Compression mode : Lossy
Stream size : 541 MiB (2%)
Title : Ant.Man.and.the.Wasp.2018.1080p.BluRay.REMUX.AVC.DTS-HD.MA.7.1-FGT
Language : French
Service kind : Complete Main
Default : No
Forced : No

Audio #5
ID : 6
Format : AC-3
Format/Info : Audio Coding 3
Codec ID : A_AC3
Duration : 1 h 58 min
Bit rate mode : Constant
Bit rate : 640 kb/s
Channel(s) : 6 channels
Channel positions : Front: L C R, Side: L R, LFE
Sampling rate : 48.0 kHz
Frame rate : 31.250 FPS (1536 SPF)
Bit depth : 16 bits
Compression mode : Lossy
Stream size : 541 MiB (2%)
Title : Ant.Man.and.the.Wasp.2018.1080p.BluRay.REMUX.AVC.DTS-HD.MA.7.1-FGT
Language : Spanish
Service kind : Complete Main
Default : No
Forced : No

Audio #6
ID : 7
Format : AC-3
Format/Info : Audio Coding 3
Codec ID : A_AC3
Duration : 1 h 58 min
Bit rate mode : Constant
Bit rate : 640 kb/s
Channel(s) : 6 channels
Channel positions : Front: L C R, Side: L R, LFE
Sampling rate : 48.0 kHz
Frame rate : 31.250 FPS (1536 SPF)
Bit depth : 16 bits
Compression mode : Lossy
Stream size : 541 MiB (2%)
Title : Ant.Man.and.the.Wasp.2018.1080p.BluRay.REMUX.AVC.DTS-HD.MA.7.1-FGT
Language : Portuguese
Service kind : Complete Main
Default : No
Forced : No

Audio #7
ID : 8
Format : AC-3
Format/Info : Audio Coding 3
Codec ID : A_AC3
Duration : 1 h 58 min
Bit rate mode : Constant
Bit rate : 192 kb/s
Channel(s) : 2 channels
Channel positions : Front: L R
Sampling rate : 48.0 kHz
Frame rate : 31.250 FPS (1536 SPF)
Bit depth : 16 bits
Compression mode : Lossy
Stream size : 162 MiB (0%)
Title : Ant.Man.and.the.Wasp.2018.1080p.BluRay.REMUX.AVC.DTS-HD.MA.7.1-FGT
Language : English
Service kind : Complete Main
Default : No
Forced : No

Text #1
ID : 9
Format : PGS
Muxing mode : zlib
Codec ID : S_HDMV/PGS
Codec ID/Info : Picture based subtitle format used on BDs/HD-DVDs
Duration : 1 h 57 min
Bit rate : 44.7 kb/s
Count of elements : 4274
Stream size : 37.6 MiB (0%)
Title : English-PGS
Language : English
Default : Yes
Forced : No

Text #2
ID : 10
Format : PGS
Muxing mode : zlib
Codec ID : S_HDMV/PGS
Codec ID/Info : Picture based subtitle format used on BDs/HD-DVDs
Duration : 1 h 57 min
Bit rate : 31.1 kb/s
Count of elements : 3580
Stream size : 26.2 MiB (0%)
Title : French-PGS
Language : French
Default : No
Forced : No

Text #3
ID : 11
Format : PGS
Muxing mode : zlib
Codec ID : S_HDMV/PGS
Codec ID/Info : Picture based subtitle format used on BDs/HD-DVDs
Duration : 1 h 57 min
Bit rate : 36.0 kb/s
Count of elements : 3588
Stream size : 30.3 MiB (0%)
Title : Spanish-PGS
Language : Spanish
Default : No
Forced : No

Text #4
ID : 12
Format : PGS
Muxing mode : zlib
Codec ID : S_HDMV/PGS
Codec ID/Info : Picture based subtitle format used on BDs/HD-DVDs
Duration : 1 h 57 min
Bit rate : 36.0 kb/s
Count of elements : 3534
Stream size : 30.3 MiB (0%)
Title : Portuguese-PGS
Language : Portuguese
Default : No
Forced : No

Text #5
ID : 13
Format : PGS
Muxing mode : zlib
Codec ID : S_HDMV/PGS
Codec ID/Info : Picture based subtitle format used on BDs/HD-DVDs
Duration : 1 h 57 min
Bit rate : 87.3 kb/s
Count of elements : 4804
Stream size : 73.7 MiB (0%)
Title : English-COMMENTARY-PGS
Language : English
Default : No
Forced : No

Text #6
ID : 14
Format : PGS
Muxing mode : zlib
Codec ID : S_HDMV/PGS
Codec ID/Info : Picture based subtitle format used on BDs/HD-DVDs
Duration : 1 h 57 min
Bit rate : 74.4 kb/s
Count of elements : 4776
Stream size : 62.8 MiB (0%)
Title : French-COMMENTARY-PGS
Language : French
Default : No
Forced : No

Text #7
ID : 15
Format : PGS
Muxing mode : zlib
Codec ID : S_HDMV/PGS
Codec ID/Info : Picture based subtitle format used on BDs/HD-DVDs
Duration : 1 h 57 min
Bit rate : 83.5 kb/s
Count of elements : 4776
Stream size : 70.4 MiB (0%)
Title : Spanish-COMMENTARY-PGS
Language : Spanish
Default : No
Forced : No

Text #8
ID : 16
Format : PGS
Muxing mode : zlib
Codec ID : S_HDMV/PGS
Codec ID/Info : Picture based subtitle format used on BDs/HD-DVDs
Duration : 1 h 57 min
Bit rate : 78.7 kb/s
Count of elements : 4776
Stream size : 66.4 MiB (0%)
Title : Portuguese-COMMENTARY-PGS
Language : Portuguese
Default : No
Forced : No

Text #9
ID : 17
Format : PGS
Muxing mode : zlib
Codec ID : S_HDMV/PGS
Codec ID/Info : Picture based subtitle format used on BDs/HD-DVDs
Duration : 1 h 53 min
Bit rate : 367 b/s
Count of elements : 52
Stream size : 306 KiB (0%)
Title : French-FORCED-PGS
Language : French
Default : No
Forced : No

Text #10
ID : 18
Format : PGS
Muxing mode : zlib
Codec ID : S_HDMV/PGS
Codec ID/Info : Picture based subtitle format used on BDs/HD-DVDs
Duration : 1 h 54 min
Bit rate : 198 b/s
Count of elements : 16
Stream size : 167 KiB (0%)
Title : Spanish-FORCED-PGS
Language : Spanish
Default : No
Forced : No

Text #11
ID : 19
Format : PGS
Muxing mode : zlib
Codec ID : S_HDMV/PGS
Codec ID/Info : Picture based subtitle format used on BDs/HD-DVDs
Duration : 1 h 54 min
Bit rate : 227 b/s
Count of elements : 18
Stream size : 191 KiB (0%)
Title : Portuguese-FORCED-PGS
Language : Portuguese
Default : No
Forced : No

Menu
00:00:00.000 : en:Chapter 01
00:04:03.034 : en:Chapter 02
00:10:16.407 : en:Chapter 03
00:13:39.860 : en:Chapter 04
00:21:25.450 : en:Chapter 05
00:29:07.829 : en:Chapter 06
00:36:09.083 : en:Chapter 07
00:40:56.579 : en:Chapter 08
00:50:17.431 : en:Chapter 09
00:58:59.077 : en:Chapter 10
01:04:56.434 : en:Chapter 11
01:12:54.286 : en:Chapter 12
01:18:32.124 : en:Chapter 13
01:24:44.913 : en:Chapter 14
01:29:47.340 : en:Chapter 15
01:36:16.270 : en:Chapter 16
01:43:35.334 : en:Chapter 17
01:46:59.830 : en:Chapter 18

Duration: 118 min

Quality: Remuxed

Release:

IMDb: 7.3

Ant-Man and the Wasp (2018) Blu-ray 1080p REMUX AVC DTS-HD MA 7.1-FGT
Ant-Man and the Wasp (2018) Blu-ray 1080p REMUX AVC DTS-HD MA 7.1-FGT
Ant-Man and the Wasp (2018) Blu-ray 1080p REMUX AVC DTS-HD MA 7.1-FGT
Ant-Man and the Wasp (2018) Blu-ray 1080p REMUX AVC DTS-HD MA 7.1-FGT
Ant-Man and the Wasp (2018) Blu-ray 1080p REMUX AVC DTS-HD MA 7.1-FGT
Ant-Man and the Wasp (2018) Blu-ray 1080p REMUX AVC DTS-HD MA 7.1-FGT
Ant-Man and the Wasp (2018) Blu-ray 1080p REMUX AVC DTS-HD MA 7.1-FGT
Ant-Man and the Wasp (2018) Blu-ray 1080p REMUX AVC DTS-HD MA 7.1-FGT
Ant-Man and the Wasp (2018) Blu-ray 1080p REMUX AVC DTS-HD MA 7.1-FGT
Ant-Man and the Wasp (2018) Blu-ray 1080p REMUX AVC DTS-HD MA 7.1-FGT
Ant-Man and the Wasp (2018) Blu-ray 1080p REMUX AVC DTS-HD MA 7.1-FGT
Ant-Man and the Wasp (2018) Blu-ray 1080p REMUX AVC DTS-HD MA 7.1-FGT
Ant-Man and the Wasp (2018) Blu-ray 1080p REMUX AVC DTS-HD MA 7.1-FGT
Ant-Man and the Wasp (2018) Blu-ray 1080p REMUX AVC DTS-HD MA 7.1-FGT
Ant-Man and the Wasp (2018) Blu-ray 1080p REMUX AVC DTS-HD MA 7.1-FGT
Ant-Man and the Wasp (2018) Blu-ray 1080p REMUX AVC DTS-HD MA 7.1-FGT
Ant-Man and the Wasp (2018) Blu-ray 1080p REMUX AVC DTS-HD MA 7.1-FGT
Ant-Man and the Wasp (2018) Blu-ray 1080p REMUX AVC DTS-HD MA 7.1-FGT
Ant-Man and the Wasp (2018) Blu-ray 1080p REMUX AVC DTS-HD MA 7.1-FGT
Ant-Man and the Wasp (2018) Blu-ray 1080p REMUX AVC DTS-HD MA 7.1-FGT
Ant-Man and the Wasp (2018) Blu-ray 1080p REMUX AVC DTS-HD MA 7.1-FGT
Ant-Man and the Wasp (2018) Blu-ray 1080p REMUX AVC DTS-HD MA 7.1-FGT
Ant-Man and the Wasp (2018) Blu-ray 1080p REMUX AVC DTS-HD MA 7.1-FGT
Ant-Man and the Wasp (2018) Blu-ray 1080p REMUX AVC DTS-HD MA 7.1-FGT

Comments

Leave a Reply

Your email address will not be published. Required fields are marked *